关于winamp cueplayer插件 和 cue文件的编辑 的小小总结

neil tohno:winamp整合贴(保持最新?)zhuanlan.zhihu.com图标

cueplayer 的小小总结

最先说,cueplayer插件 v0.57c 依旧 和 Winamp 5.666 Build 3516(最新版)完全兼容,此前我使用 cueplayer插件发生问题的原因是:安装使用了Winamp Playlist Undo 插件(winampplugins.co.uk/plu

0. 最大问题 —— 仅仅 支持 标准cue格式的ANSI码

0.1 所以乱码和错误比较严重,必须寻找方法转换cue文件内容为:

标准cue格式的文本(中文ANSI码),而utf-8编码格式不支持

0.1.2 常听日语歌的话,会发现很多日文字符转换不过来?

日文字符超级多,比较幸运的是,很多字符是中文Windows系统支持的

(ps.假设你是老外,那你只能全部用 romaji了)

如果发现不支持转换的字符,尽量寻找中文ANSI码的来代替,或者随便 ".""*"(英文句号、星号什么的)就可以播放,只是显示不好看而已。

0.2 注意cue文件的正确编辑方法(下面我会讲),否则会报错

0.3* 所以说,欢迎换日语Windows系统,搜索“非 Unicode程序的语言”了解。

1. cueplayer只支持INDEX01,完全无视INDEX00 (同foolbar2000等播放器)

2. 播放列表 右键 - 文件信息 转到了 cue 文件信息

2.1 点击 确定 —— 关闭查看

2.2 支持 标题和歌手的修改,必须 点击 保存,由于winamp 机制问题,刚修改的项目 不会被立刻显示, 必须 立即更改cue文件名或者清理winamp播放历史,然后重新打开cue文件,就能看到刚刚的项目更改

“快速刪除Winamp的播放歷史”的bat文件

3. 打开cueplayer插件 配置

3.1 说明 cueplayer插件 支持读取 标准cue格式中的 %artist% %%title% %album% %file% %track% 等字段(语法为cueplayer插件的)。 那么我修改 该插件的【标题格式】为啥 播放列表 没有显示 更改?并不是由于winamp 机制问题,


而是 winamp 的 播放列表 【标题】 格式问题,这里不讲【标题】格式语法,一些播放器例如JRiver Media Center 19也有类似语法功能

3.2 继续第二选项卡,【插件】—— 为文件类型选用 输入插件,一般使用winamp默认,你可以自己更改,

并且由于 该插件功能 ,winamp对特定格式的 重解码功能失效,此时当然是默认输出插件(out_ds.dll)


cue文件的编辑 的小小总结

0. 知识点——Cue sheet,wiki.hydrogenaudio.org/

1.0 编辑时,重命名更改后缀名为 文本文档格式 “.txt" 并使用 word 打开该文件,并选择正确编码读取该文件(欢迎百度)

2.1 注意乱码 字符—— 虽然最开始选择了正确编码读取文件时,但仍然可能出现乱码的 文本

2.2 要点:ISRC字段、REM字段、CATALOG字段不必要,其余皆为必要字段。

例1. 单个WAV文件

FILE "彩音 - Luminous Flux.tak" WAVE

#注意文件名,没必要填入文件的完整路径,此时cue文件必须和 "彩音 - Luminous Flux.tak" 在同一文件夹;反过来说,填入文件的完整路径后,cue文件没必要和"彩音 - Luminous Flux.tak"在同一文件夹。

REM DATE 2014                                                                 
REM DISCID AC10840F
REM COMMENT "ExactAudioCopy v0.99pb5"
CATALOG 4582325373305
PERFORMER "彩音"              
TITLE "Luminous Flux"
FILE "彩音 - Luminous Flux.tak" WAVE
  TRACK 01 AUDIO
   TITLE "フェノグラム"
   PERFORMER "彩音"
   ISRC JPK631301501 
   INDEX 01 00:00:00
 TRACK 02 AUDIO
   TITLE "Fullmoon Rhapsody"
   PERFORMER "彩音"
   ISRC JPK631103503
   INDEX 00 04:56:24
   INDEX 01 04:58:23
 TRACK 03 AUDIO
   TITLE "覚醒-Fractional Vision-"
   PERFORMER "彩音"
   ISRC JPK631400101
   INDEX 00 10:03:12
   INDEX 01 10:05:48
 TRACK 04 AUDIO
   TITLE "幻術のクロスロード"
   PERFORMER "彩音"
   ISRC JPK631303301
   INDEX 00 15:36:53
   INDEX 01 15:39:14
 TRACK 05 AUDIO
   TITLE "Divine Beast"
   PERFORMER "彩音"
   ISRC JPK631400102
   INDEX 00 19:45:62
   INDEX 01 19:48:61
 TRACK 06 AUDIO
   TITLE "Crest of Knights"
   PERFORMER "彩音"
   ISRC JPK631103501
   INDEX 00 24:11:53
   INDEX 01 24:13:52
 TRACK 07 AUDIO
   TITLE "Red Rose Evangel Full Ver."
   PERFORMER "彩音"
   ISRC JPK631201502
   INDEX 00 28:46:10
   INDEX 01 28:48:09
 TRACK 08 AUDIO
   TITLE "cry out"
   PERFORMER "彩音"
   ISRC JPK631201501
   INDEX 00 33:39:01
   INDEX 01 33:41:00
 TRACK 09 AUDIO
   TITLE "ultimate arrow"
   PERFORMER "彩音"
   ISRC JPK631400103
   INDEX 00 37:30:45
   INDEX 01 37:32:44
 TRACK 10 AUDIO
   TITLE "punitive justice~千年の錯綜~"
   PERFORMER "彩音"
   ISRC JPK631400104
   INDEX 00 41:48:52
   INDEX 01 41:51:26
 TRACK 11 AUDIO
   TITLE "GO→Love&Peace"
   PERFORMER "彩音"
  ISRC JPK631103502
   INDEX 00 46:55:52
   INDEX 01 46:57:64
 TRACK 12 AUDIO
   TITLE "かけがえのない思い ずっと一緒に"
   PERFORMER "彩音"
   ISRC JPK631301502
   INDEX 00 52:17:40
   INDEX 01 52:19:39
 TRACK 13 AUDIO
   TITLE "パーフェクト☆クエスト"
   PERFORMER "彩音"
   ISRC JPK631303302
   INDEX 00 56:35:55
   INDEX 01 56:38:17
 TRACK 14 AUDIO
   TITLE "The place in your dream"
   PERFORMER "彩音"
   ISRC JPK631400105
   INDEX 00 60:35:16
   INDEX 01 60:37:15
 TRACK 15 AUDIO
   TITLE "いつもこの場所で"
   PERFORMER "彩音"
   ISRC JPK631301401
   INDEX 00 65:07:48
   INDEX 01 65:10:10

例2. 分軌WAV文件组成的专辑 (TITLE字段、PERFORMER字段请自行脑补),

第一行

TITLE "" #.....................................TITLE是整个专辑名字

第二行
PERFORMER "" #.....................................PERFORMER是整个专辑的artist的名字

其余的TITLE、PERFORMER是那首曲目的曲目名和歌手


TITLE ""
PERFORMER ""  
FILE "étude1.APE" WAVE
  TRACK 01 AUDIO
  TITLE ""
  PERFORMER ""  
    INDEX 00 00:00:00
    INDEX 01 00:00:00
FILE "étude2.APE" WAVE
  TRACK 02 AUDIO
  TITLE ""
  PERFORMER ""  
    INDEX 00 00:00:00
    INDEX 01 00:00:00
FILE "étude3.APE" WAVE
  TRACK 03 AUDIO
  TITLE ""
  PERFORMER ""  
    INDEX 00 00:00:00
    INDEX 01 00:00:00
FILE "étude4.APE" WAVE
  TRACK 04 AUDIO
  TITLE ""
  PERFORMER ""  
    INDEX 00 00:00:00
    INDEX 01 00:00:00
FILE "étude5.APE" WAVE
  TRACK 05 AUDIO
  TITLE ""
  PERFORMER ""  
    INDEX 00 00:00:00
    INDEX 01 00:00:00
FILE "étude6.APE" WAVE
  TRACK 06 AUDIO
  TITLE ""
  PERFORMER ""  
    INDEX 00 00:00:00
    INDEX 01 00:00:00
FILE "étude7.APE" WAVE
  TRACK 07 AUDIO
  TITLE ""
  PERFORMER ""  
    INDEX 00 00:00:00
    INDEX 01 00:00:00
FILE "étude8.APE" WAVE
  TRACK 08 AUDIO
  TITLE ""
  PERFORMER ""  
    INDEX 00 00:00:00
    INDEX 01 00:00:00
FILE "étude9.APE" WAVE
  TRACK 09 AUDIO
  TITLE ""
  PERFORMER ""  
    INDEX 00 00:00:00
    INDEX 01 00:00:00
FILE "étude10.APE" WAVE
  TRACK 10 AUDIO
  TITLE ""
  PERFORMER ""  
    INDEX 00 00:00:00
    INDEX 01 00:00:00
FILE "étude11.APE" WAVE
  TRACK 11 AUDIO
  TITLE ""
  PERFORMER ""  
    INDEX 00 00:00:00
    INDEX 01 00:00:00
FILE "étude12.APE" WAVE
  TRACK 12 AUDIO
  TITLE ""
  PERFORMER ""  
    INDEX 00 00:00:00
    INDEX 01 00:00:00
FILE "étude13.APE" WAVE
  TRACK 13 AUDIO
  TITLE ""
  PERFORMER ""  
    INDEX 00 00:00:00
    INDEX 01 00:00:00
FILE "étude14.APE" WAVE
  TRACK 14 AUDIO
  TITLE ""
  PERFORMER ""  
    INDEX 00 00:00:00
    INDEX 01 00:00:00
FILE "étude15.APE" WAVE
  TRACK 15 AUDIO
  TITLE ""
  PERFORMER ""  
    INDEX 00 00:00:00
    INDEX 01 00:00:00


3. 如果cue文件有问题,或者根本就没cue文件怎么办?

以下方法:

3.1 查看 wiki.hydrogenaudio.org/

3.2 谷`歌搜以获得专辑信息 比如 freedbMusicBrainzGracenotefreedb.orgAmazon JP ,vgmdb

3.3 你可以根据翻录产生的log文件,创建或修改cue文件*

3.4 打开 Exact Audio Copy,选项-工具-处理WAV文件,可以从wav中生成cue文件*


4.0 编辑工具

选择Notepad++ 和 Word (Microsoft Office) 都行,Word的编码会多一点,还有警告之类的。

Word编辑完成后,选择另存为 ".txt" 文本文档,选择中文 ANSI码,此时如果有非ANSI码的文本出现,会报告错误并红字提示

请返回更改,更改为正确的 ANSI码,若忽略错误,该字段将变为”?“。


以上。

编辑于 2018-02-08